Всё для маникюра скачать торент

Дизайн ногтей ФРЕНЧ! Все про французский маникюр гель лаком. РАЗНЫЕ СПОСОБЫ


Зеленова Г.С. - Современный маникюр [, PDF, RUS] :: Asmlocator Prival SecureStream


Mediainfo

General
Complete name : E:\!torents\Design.eto.prosto.RUS.DVDRip.by.gera.avi
Format : AVI
Format/Info : Audio Video Interleave
File size : 701 MiB
Duration : 1 h 17 min
Overall bit rate : 1 265 kb/s
Genre : Documentary
Writing application : Nandub v1.0rc2
Original source form/Name : Interactive
Comment : DVDRip by gera
Video
ID : 0
Format : MPEG-4 Visual
Format profile : Advanced Simple@L5
Format settings, BVOP : 2
Format settings, QPel : No
Format settings, GMC : No warppoints
Format settings, Matrix : Default (MPEG)
Muxing mode : Packed bitstream
Codec ID : XVID
Codec ID/Hint : XviD
Duration : 1 h 17 min
Bit rate : 1 124 kb/s
Width : 720 pixels
Height : 400 pixels
Display aspect ratio : 16:9
Frame rate : 25.000 FPS
Color space : YUV
Chroma subsampling : 4:2:0
Bit depth : 8 bits
Scan type : Progressive
Compression mode : Lossy
Bits/(Pixel*Frame) : 0.156
Stream size : 623 MiB (89%)
Writing library : XviD 1.1.2 (UTC 2006-11-01)
Audio
ID : 1
Format : MPEG Audio
Format version : Version 1
Format profile : Layer 3
Mode : Joint stereo
Mode extension : MS Stereo
Codec ID : 55
Codec ID/Hint : MP3
Duration : 1 h 17 min
Bit rate mode : Constant
Bit rate : 128 kb/s
Channel(s) : 2 channels
Sampling rate : 48.0 kHz
Compression mode : Lossy
Delay relative to video : 21 ms
Stream size : 70.9 MiB (10%)
Alignment : Aligned on interleaves
Interleave, duration : 24 ms (0.60 video frame)
Interleave, preload duration : 544 ms

Источник: http://maintracker.org/forum/viewtopic.php?t=557990

Опубликовано: 2017-12-20T20:39:18 | Автор: Парфен

Рейтинг статьи: 5

Похожие статьи:

Всего 7 комментариев.


#1 27.12.2017 в 21:20 Куприян:
Кроме этого, для самостоятельного изучения предлагается несколько различных видов маникюра, а также множество видов дизайна ногтей.  Скачать бесплатно [ gb].

#2 07.01.2018 в 02:48 velwhirltrad:
Кроме этого, для самостоятельного изучения предлагается несколько различных видов маникюра, а также множество видов дизайна  Скриншоты: Время раздачи: 24/7 (круглосуточно) - до 5 скачавших, далее по возможности. [sockson.ru]_Alena.

#3 12.01.2018 в 07:48 Виталий:
О том, кому нужно скачать маникюрный салон на андроид, можно догадаться, прочитав комментарии под витриной приложения в Google Play  А вот на различные виды красок для маникюра авторы явно не поскупились – в местном.

#4 21.01.2018 в 19:22 erolak1968:
Скачать книги по запросу "маникюр" совершенно бесплатно и без регистрации.  стильных вариантов маникюра для 4 сезонов года. Коллинз Синтия.

#5 29.01.2018 в 20:43 Фаина:
Маникюр и педикюр - древнейшие косметологические процедуры, целью которых является уход за руками и ногами для профилактики различных заболеваний и для придания  Скачать торрент. Магнитная ссылка. Поддержи раздачу — поставь лайк.

#6 01.02.2018 в 23:06 Доминика:
sockson.ru - открытый торрент трекер - скачивайте любые торренты и смотрите фильмы ОНЛАЙН без регистрации и рекламы.  Для Мосгорсуда, Роскомнадзора и рекламодателей:: mosgorsud-torrent[собачка]sockson.ru

#7 02.02.2018 в 17:26 Мариетта:
препараты для проведения маникюра - техника выполнения процедуры маникюра - особенности проведения маникюра  Как скачивать · Что такое torrent (торрент). Сайт не распространяет и не хранит электронные версии произведений, а лишь.